創作內容

2 GP

【開箱】EGOIST 9th sg『咲かせや咲かせ』綻放吧綻放 台壓通常盤 附海報

作者:有人│甲鐵城的卡巴內里 ~海門決戰~│2019-05-20 00:27:50│贊助:4│人氣:96
開箱物:
EGOIST 第9張單曲 『咲かせや咲かせ』(綻放吧綻放) 台壓版,附贈SONY B2告知海報
本單曲也作為動畫電影『甲鐵城的卡巴內里 海門決戰』主題曲

曲目表:
01 綻放吧綻放
02 London Bridge is falling down
03 The Everlasting Guilty Crown Nightcore mix
04 綻放吧綻放 -Instrumental-
05 London Bridge is falling down -Instrumental-
06 The Everlasting Guilty Crown Nightcore mix -Instrumental-

試聽:mora

台壓版17號發售,18號早上黑貓就來了,不過我還在睡覺,
之前還有找代購買初回生產限定盤,到時候到貨的話有閒再發。

電腦桌上的光線不太好拍照+手機渣拍請見諒。
海報選擇宅配會附贈海報筒。

拆開包裝,包裝的袋子是一體成形的。

CD本體,用2層氣泡布包起來。
不過這次台壓的歌詞本(封面)好像小了一點,在盒內晃一晃會小位移。

CD正面

CD反面

撕掉包裝膜



CD內盒




歌詞本,只拍兩頁。


SONY的B2告知海報

讚讚,不過看完後就先收回海報筒了。

之後把CD拿去用EAC轉成FLAC後,就可以把CD收藏起來了。

Track  1

     Filename C:\Users\user\Desktop\EAC\EGOIST - 咲かせや咲かせ\01. 咲かせや咲かせ.wav

     Pre-gap length  0:00:02.00

     Peak level 100.0 %
     Extraction speed 2.0 X
     Track quality 99.9 %
     Test CRC 6600E80B
     Copy CRC 6600E80B
     Copy OK

Track  2

     Filename C:\Users\user\Desktop\EAC\EGOIST - 咲かせや咲かせ\02. London Bridge is falling down.wav

     Pre-gap length  0:00:02.37

     Peak level 99.9 %
     Extraction speed 2.7 X
     Track quality 100.0 %
     Test CRC 220EF4B1
     Copy CRC 220EF4B1
     Copy OK

Track  3

     Filename C:\Users\user\Desktop\EAC\EGOIST - 咲かせや咲かせ\03. The Everlasting Guilty Crown Nightcore mix.wav

     Pre-gap length  0:00:02.36

     Peak level 100.0 %
     Extraction speed 3.2 X
     Track quality 100.0 %
     Test CRC 7F4EFE97
     Copy CRC 7F4EFE97
     Copy OK

Track  4

     Filename C:\Users\user\Desktop\EAC\EGOIST - 咲かせや咲かせ\04. 咲かせや咲かせ (Instrumental).wav

     Pre-gap length  0:00:04.36

     Peak level 100.0 %
     Extraction speed 2.6 X
     Track quality 99.9 %
     Test CRC 95778C85
     Copy CRC 95778C85
     Copy OK

Track  5

     Filename C:\Users\user\Desktop\EAC\EGOIST - 咲かせや咲かせ\05. London Bridge is falling down (Instrumental).wav

     Pre-gap length  0:00:02.37

     Peak level 99.9 %
     Extraction speed 3.3 X
     Track quality 100.0 %
     Test CRC B5010245
     Copy CRC B5010245
     Copy OK

Track  6

     Filename C:\Users\user\Desktop\EAC\EGOIST - 咲かせや咲かせ\06. The Everlasting Guilty Crown Nightcore mix (Instrumental).wav

     Pre-gap length  0:00:02.37

     Peak level 100.0 %
     Extraction speed 3.9 X
     Track quality 100.0 %
     Test CRC E2F05FA4
     Copy CRC E2F05FA4
     Copy OK

No errors occurred

End of status report

---- CUETools DB Plugin V2.1.6

[CTDB TOCID: qCXUOQv4blAcH.g2rcXPT6OWObw-] found
Submit result: qCXUOQv4blAcH.g2rcXPT6OWObw- has been confirmed
Track | CTDB Status
  1   | (24/24) Accurately ripped
  2   | (24/24) Accurately ripped
  3   | (24/24) Accurately ripped
  4   | (24/24) Accurately ripped
  5   | (24/24) Accurately ripped
  6   | (24/24) Accurately ripped

EAC的log檔,跟另外23個有上傳結果資料的人無問題。

以下微聽感,HD660S用電腦主機板B350F的S1220A高增益直推,沒有上擴,看看就好
聽感為個人感覺,不是絕對。

只以「咲かせや咲かせ」這首做比較,
這張單曲的錄音,個人認為比起以前的錄音,
可以說是Chelly的歌聲從擠在耳朵中間且聲音較為背景音樂突出一點,
變成開闊蠻多的音場,但Chelly的歌聲距離感變遠了一點,且樂器分離感變好,
聽久會比較舒服。
要比喻的話大概是Chelly的歌聲從貼在耳朵旁邊的球狀變成離耳朵較遠一點的橢圓形的大面積吧。

Chelly的聲音還是一樣很勾我,從當初聽到「Departures ~あなたにおくるアイの歌~  」
之後馬上被圈粉,然後開始接觸其他的歌了。Chelly也是我最喜歡的歌手,不小心就收了好幾張CD了。

話題外,個人覺得Hi-Res還是一樣不如CD耐聽。




引用網址:https://home.gamer.com.tw/TrackBack.php?sn=4398481
All rights reserved. 版權所有,保留一切權利

相關創作

同標籤作品搜尋:Chelly|甲鐵城的卡巴內里 ~海門決戰~|EGOIST

留言共 1 篇留言

小羅さん
EGOIST 賽高

05-23 03:13

有人
最高!05-24 00:24
我要留言提醒:您尚未登入,請先登入再留言

2喜歡★nexzino 可決定是否刪除您的留言,請勿發表違反站規文字。

追蹤私訊

作品資料夾

face基於日前微軟官方表示 Internet Explorer 不再支援新的網路標準,可能無法使用新的應用程式來呈現網站內容,在瀏覽器支援度及網站安全性的雙重考量下,為了讓巴友們有更好的使用體驗,巴哈姆特即將於 2019年9月2日 停止支援 Internet Explorer 瀏覽器的頁面呈現和功能。
屆時建議您使用下述瀏覽器來瀏覽巴哈姆特:
。Google Chrome(推薦)
。Mozilla Firefox
。Microsoft Edge(Windows10以上的作業系統版本才可使用)

face我們了解您不想看到廣告的心情⋯ 若您願意支持巴哈姆特永續經營,請將 gamer.com.tw 加入廣告阻擋工具的白名單中,謝謝 !【教學】