創作內容

2 GP

SSF模擬器黑屏解決方法

作者:KJ│Saturn 轟炸超人│2017-07-25 22:28:02│巴幣:4│人氣:2244

最近心血來潮想用SSF重溫童年Saturn的遊戲,可是卻發現遊戲一直沒辦法正常啟動,可是印象中我這台筆電之前也是有正常玩過的,加上家裡另外一台桌電運行無誤就覺得很納悶,就開始邊查原因邊學,最後終於讓我成功啦!如果有相同情況的人可以參考看看,也是為我自己留下筆記怕以後又遇到一樣問題
=====================================================
首先先講一下基本資料
CPU:Intel core i5-4200M
記憶體:8GB
作業系統:Windows 8.1  64-bit
SSF版本:SSF_012_beta_R4
=====================================================
先從轟炸超人講起,一開始遇到問題為能夠開啟遊戲,能夠看到BIOS畫面,也能夠看到遊戲裡的HUDSON畫面,但是HUDSON畫面一結束就黑掉不再運作了。
拿了另一台可以正常運作SSF的電腦來比對:
CPU:Intel Celeron(R) G1620 2.70GHz
記憶體:4GB
作業系統:Windows7  32-bit
SSF版本:SSF_012_beta_R4

就硬體來說都有支援SSE2所以應該是沒問題,想說是不是作業系統問題,
可是網路上有查到網友Windows10也是可以玩的,官方也有寫Windows8可以,
那大概就是ROM的問題了吧!

拿了兩台電腦的遊戲檔來比對:

這是我這台筆電的遊戲檔 這是另一台桌電的遊戲檔
可以看得出來這是iso+ape+cue的檔案 這邊是bin+cue
這是酒精掛載iso檔之後的內容 這是酒精掛載cue檔之後的內容
這是掛載完,虛擬光碟機的圖示


    1. FILE "Track01.iso" BINARY
    2.   TRACK 01 MODE1/2048
    3.       INDEX 01 00:00:00
    4. FILE "Track02.wav" WAVE
    5.   TRACK 02 AUDIO
    6.     PREGAP 00:02:00
    7.     INDEX 01 00:00:00
    8. FILE "Track03.wav" WAVE
    9.   TRACK 03 AUDIO
    10.     INDEX 01 00:00:00
    11. FILE "Track04.wav" WAVE
    12.   TRACK 04 AUDIO
    13.     INDEX 01 00:00:00
    14. FILE "Track05.wav" WAVE
    15.   TRACK 05 AUDIO
    16.     INDEX 01 00:00:00
    17. FILE "Track06.wav" WAVE
    18.   TRACK 06 AUDIO
    19.     INDEX 01 00:00:00
    20. FILE "Track07.wav" WAVE
    21.   TRACK 07 AUDIO
    22.     INDEX 01 00:00:00
    23. FILE "Track08.wav" WAVE
    24.   TRACK 08 AUDIO
    25.     INDEX 01 00:00:00
    26. FILE "Track09.wav" WAVE
    27.   TRACK 09 AUDIO
    28.     INDEX 01 00:00:00
    29. FILE "Track10.wav" WAVE
    30.   TRACK 10 AUDIO
    31.     INDEX 01 00:00:00
    32. FILE "Track11.wav" WAVE
    33.   TRACK 11 AUDIO
    34.     INDEX 01 00:00:00
    35. FILE "Track12.wav" WAVE
    36.   TRACK 12 AUDIO
    37.     INDEX 01 00:00:00
    38. FILE "Track13.wav" WAVE
    39.   TRACK 13 AUDIO
    40.     INDEX 01 00:00:00
    41. FILE "Track14.wav" WAVE
    42.   TRACK 14 AUDIO
    43.     INDEX 01 00:00:00
    44. FILE "Track15.wav" WAVE
    45.   TRACK 15 AUDIO
    46.     INDEX 01 00:00:00
    47. FILE "Track16.wav" WAVE
    48.   TRACK 16 AUDIO
    49.     INDEX 01 00:00:00
    50. FILE "Track17.wav" WAVE
    51.   TRACK 17 AUDIO
    52.     INDEX 01 00:00:00
    53. FILE "Track18.wav" WAVE
    54.   TRACK 18 AUDIO
    55.     INDEX 01 00:00:00
    56. FILE "Track19.wav" WAVE
    57.   TRACK 19 AUDIO
    58.     INDEX 01 00:00:00
    59. FILE "Track20.wav" WAVE
    60.   TRACK 20 AUDIO
    61.     INDEX 01 00:00:00
    62. FILE "Track21.wav" WAVE
    63.   TRACK 21 AUDIO
    64.     INDEX 01 00:00:00
    65. FILE "Track22.wav" WAVE
    66.   TRACK 22 AUDIO
    67.     INDEX 01 00:00:00
    68. FILE "Track23.wav" WAVE
    69.   TRACK 23 AUDIO
    70.     INDEX 01 00:00:00
    71. FILE "Track24.wav" WAVE
    72.   TRACK 24 AUDIO
    73.     INDEX 01 00:00:00
    74. FILE "Track25.wav" WAVE
    75.   TRACK 25 AUDIO
    76.     INDEX 01 00:00:00
    77. FILE "Track26.wav" WAVE
    78.   TRACK 26 AUDIO
    79.     INDEX 01 00:00:00
    80. FILE "Track27.wav" WAVE
    81.   TRACK 27 AUDIO
    82.     INDEX 01 00:00:00
    83. FILE "Track28.wav" WAVE
    84.   TRACK 28 AUDIO
    85.     INDEX 01 00:00:00
    86. FILE "Track29.wav" WAVE
    87.   TRACK 29 AUDIO
    88.     INDEX 01 00:00:00
    89. FILE "Track30.wav" WAVE
    90.   TRACK 30 AUDIO
    91.     INDEX 01 00:00:00

    1. FILE "Saturn Bomberman (J)(Saturn).BIN" BINARY
    2.   TRACK 01 MODE1/2352
    3.     INDEX 01 00:00:00
    4.   TRACK 02 AUDIO
    5.     PREGAP 00:02:00
    6.     INDEX 01 12:25:74
    7.   TRACK 03 AUDIO
    8.     INDEX 00 12:48:40
    9.     INDEX 01 12:50:40
    10.   TRACK 04 AUDIO
    11.     INDEX 00 15:30:20
    12.     INDEX 01 15:32:20
    13.   TRACK 05 AUDIO
    14.     INDEX 00 18:04:64
    15.     INDEX 01 18:06:64
    16.   TRACK 06 AUDIO
    17.     INDEX 00 21:04:37
    18.     INDEX 01 21:06:37
    19.   TRACK 07 AUDIO
    20.     INDEX 00 24:09:10
    21.     INDEX 01 24:11:10
    22.   TRACK 08 AUDIO
    23.     INDEX 00 26:42:20
    24.     INDEX 01 26:44:20
    25.   TRACK 09 AUDIO
    26.     INDEX 00 28:46:72
    27.     INDEX 01 28:48:72
    28.   TRACK 10 AUDIO
    29.     INDEX 00 30:40:62
    30.     INDEX 01 30:42:62
    31.   TRACK 11 AUDIO
    32.     INDEX 00 30:56:19
    33.     INDEX 01 30:58:19
    34.   TRACK 12 AUDIO
    35.     INDEX 00 33:54:24
    36.     INDEX 01 33:56:24
    37.   TRACK 13 AUDIO
    38.     INDEX 00 35:19:20
    39.     INDEX 01 35:21:20
    40.   TRACK 14 AUDIO
    41.     INDEX 00 38:05:15
    42.     INDEX 01 38:07:15
    43.   TRACK 15 AUDIO
    44.     INDEX 00 40:09:17
    45.     INDEX 01 40:11:17
    46.   TRACK 16 AUDIO
    47.     INDEX 00 40:52:03
    48.     INDEX 01 40:54:03
    49.   TRACK 17 AUDIO
    50.     INDEX 00 43:46:17
    51.     INDEX 01 43:48:17
    52.   TRACK 18 AUDIO
    53.     INDEX 00 46:22:21
    54.     INDEX 01 46:24:21
    55.   TRACK 19 AUDIO
    56.     INDEX 00 46:53:27
    57.     INDEX 01 46:55:27
    58.   TRACK 20 AUDIO
    59.     INDEX 00 47:06:68
    60.     INDEX 01 47:08:68
    61.   TRACK 21 AUDIO
    62.     INDEX 00 47:15:13
    63.     INDEX 01 47:17:13
    64.   TRACK 22 AUDIO
    65.     INDEX 00 47:24:13
    66.     INDEX 01 47:26:13
    67.   TRACK 23 AUDIO
    68.     INDEX 00 48:05:72
    69.     INDEX 01 48:07:72
    70.   TRACK 24 AUDIO
    71.     INDEX 00 48:43:35
    72.     INDEX 01 48:45:35
    73.   TRACK 25 AUDIO
    74.     INDEX 00 49:24:24
    75.     INDEX 01 49:26:24
    76.   TRACK 26 AUDIO
    77.     INDEX 00 50:09:46
    78.     INDEX 01 50:11:46
    79.   TRACK 27 AUDIO
    80.     INDEX 00 50:51:63
    81.     INDEX 01 50:53:63
    82.   TRACK 28 AUDIO
    83.     INDEX 00 50:59:49
    84.     INDEX 01 51:01:49
    85.   TRACK 29 AUDIO
    86.     INDEX 00 51:07:56
    87.     INDEX 01 51:09:56
    88.   TRACK 30 AUDIO
    89.     INDEX 00 53:40:24
    90.     INDEX 01 53:42:24
這是兩邊各自的cue檔內容

開始著手進行修改
先用轉檔軟體(我用格式工廠)將資料夾裡的ape檔轉成wav

再用segacuemaker來更改cue的內容

  1. FILE "Track01.iso" BINARY
  2.   TRACK 01 MODE1/2048
  3.       INDEX 01 00:00:00
  4.       POSTGAP 00:02:00
  5. FILE "Track02.wav" WAVE
  6.   TRACK 02 AUDIO
  7.     PREGAP 00:02:00
  8.     INDEX 01 00:00:00
  9. FILE "Track03.wav" WAVE
  10.   TRACK 03 AUDIO
  11.     INDEX 01 00:00:00
  12. FILE "Track04.wav" WAVE
  13.   TRACK 04 AUDIO
  14.     INDEX 01 00:00:00
  15. FILE "Track05.wav" WAVE
  16.   TRACK 05 AUDIO
  17.     INDEX 01 00:00:00
  18. FILE "Track06.wav" WAVE
  19.   TRACK 06 AUDIO
  20.     INDEX 01 00:00:00
  21. FILE "Track07.wav" WAVE
  22.   TRACK 07 AUDIO
  23.     INDEX 01 00:00:00
  24. FILE "Track08.wav" WAVE
  25.   TRACK 08 AUDIO
  26.     INDEX 01 00:00:00
  27. FILE "Track09.wav" WAVE
  28.   TRACK 09 AUDIO
  29.     INDEX 01 00:00:00
  30. FILE "Track10.wav" WAVE
  31.   TRACK 10 AUDIO
  32.     INDEX 01 00:00:00
  33. FILE "Track11.wav" WAVE
  34.   TRACK 11 AUDIO
  35.     INDEX 01 00:00:00
  36. FILE "Track12.wav" WAVE
  37.   TRACK 12 AUDIO
  38.     INDEX 01 00:00:00
  39. FILE "Track13.wav" WAVE
  40.   TRACK 13 AUDIO
  41.     INDEX 01 00:00:00
  42. FILE "Track14.wav" WAVE
  43.   TRACK 14 AUDIO
  44.     INDEX 01 00:00:00
  45. FILE "Track15.wav" WAVE
  46.   TRACK 15 AUDIO
  47.     INDEX 01 00:00:00
  48. FILE "Track16.wav" WAVE
  49.   TRACK 16 AUDIO
  50.     INDEX 01 00:00:00
  51. FILE "Track17.wav" WAVE
  52.   TRACK 17 AUDIO
  53.     INDEX 01 00:00:00
  54. FILE "Track18.wav" WAVE
  55.   TRACK 18 AUDIO
  56.     INDEX 01 00:00:00
  57. FILE "Track19.wav" WAVE
  58.   TRACK 19 AUDIO
  59.     INDEX 01 00:00:00
  60. FILE "Track20.wav" WAVE
  61.   TRACK 20 AUDIO
  62.     INDEX 01 00:00:00
  63. FILE "Track21.wav" WAVE
  64.   TRACK 21 AUDIO
  65.     INDEX 01 00:00:00
  66. FILE "Track22.wav" WAVE
  67.   TRACK 22 AUDIO
  68.     INDEX 01 00:00:00
  69. FILE "Track23.wav" WAVE
  70.   TRACK 23 AUDIO
  71.     INDEX 01 00:00:00
  72. FILE "Track24.wav" WAVE
  73.   TRACK 24 AUDIO
  74.     INDEX 01 00:00:00
  75. FILE "Track25.wav" WAVE
  76.   TRACK 25 AUDIO
  77.     INDEX 01 00:00:00
  78. FILE "Track26.wav" WAVE
  79.   TRACK 26 AUDIO
  80.     INDEX 01 00:00:00
  81. FILE "Track27.wav" WAVE
  82.   TRACK 27 AUDIO
  83.     INDEX 01 00:00:00
  84. FILE "Track28.wav" WAVE
  85.   TRACK 28 AUDIO
  86.     INDEX 01 00:00:00
  87. FILE "Track29.wav" WAVE
  88.   TRACK 29 AUDIO
  89.     INDEX 01 00:00:00
  90. FILE "Track30.wav" WAVE
  91.   TRACK 30 AUDIO
  92.     INDEX 01 00:00:00
此時再用酒精掛載一次,發現光碟內容還是一樣
別緊張,只要改掛載cue檔就好囉!

接下來就能正常玩遊戲啦

祝大家都能玩到美好的童年回憶
引用網址:https://home.gamer.com.tw/TrackBack.php?sn=3657666
All rights reserved. 版權所有,保留一切權利

相關創作

同標籤作品搜尋:Saturn 轟炸超人|SSF|模擬器|SEGA|土星|SATURN|世嘉|黑屏|炸彈超人|SS

留言共 5 篇留言

沒有愛醬伴身邊的社畜
請教一下,我用的檔案跟你桌電一樣是BIN+CUE的版本,但是我卻發生跟你筆電一樣的黑色當機畫面
想請問你桌電用的SSF是多少版本??

好不容易設定好的SSF卻不能跑轟炸超人SS...

09-10 14:16

KJ
我的SSF版本是SSF_012_beta_R4喔!
看你要不要去EZ Setting那邊把相容性調一下試試看09-10 14:45
沒有愛醬伴身邊的社畜
問題找出來了,虛擬光碟的部分要能吃cue檔才有辦法讀出音軌
原本用的Virtual CloneDrive不能讀取CUE,所以會造成LOGO後讀取錯誤....

09-10 23:47

KJ
恭喜恭喜
謝謝分享經驗喔09-11 06:43
ヒロ
可是我的檔案MDF

01-03 14:22

KJ
你的遊戲檔是MDF+MDS嗎?01-03 22:33
ヒロ
我已經把AIF檔案音訊檔 改成WAV 不知道怎麼弄



01-03 14:53

ヒロ
遊戲弄好囉

01-30 08:11

KJ
恭喜恭喜!!01-30 08:13
我要留言提醒:您尚未登入,請先登入再留言

2喜歡★jack88296 可決定是否刪除您的留言,請勿發表違反站規文字。

後一篇:重灌後畫面字體霧化解決方...

追蹤私訊切換新版閱覽

作品資料夾

student3246巴友們
歡迎來小屋逛逛 自創的巴哈群組~歡迎有興趣的巴友們加入哦~(*๓´╰╯`๓)♡看更多我要大聲說昨天21:36


face基於日前微軟官方表示 Internet Explorer 不再支援新的網路標準,可能無法使用新的應用程式來呈現網站內容,在瀏覽器支援度及網站安全性的雙重考量下,為了讓巴友們有更好的使用體驗,巴哈姆特即將於 2019年9月2日 停止支援 Internet Explorer 瀏覽器的頁面呈現和功能。
屆時建議您使用下述瀏覽器來瀏覽巴哈姆特:
。Google Chrome(推薦)
。Mozilla Firefox
。Microsoft Edge(Windows10以上的作業系統版本才可使用)

face我們了解您不想看到廣告的心情⋯ 若您願意支持巴哈姆特永續經營,請將 gamer.com.tw 加入廣告阻擋工具的白名單中,謝謝 !【教學】